Enable / Włącz Javascript
 Widok 
 Kategorie 
 Nitro Torrent w sieci 
 Top 10 użytkowników 
 Salvation - Sezon 2 [720p.NF.WEB-DL.H.264.DD5.1] [Lektor PL]

Salvation - Sezon 2 [720p.NF.WEB-DL.H.264.DD5.1] [Lektor PL] wielopaczka
Kategoria: » » » »
Dodane: 10/01/2019
Rozmiar: 8.19 GB
Uploader: Lukarusi (1)
seed(ów): 0
leecher(ów): 0
Pobrane: 81
Komentarzy: 0
Pobierz Torrent Pobierz Torrent
Pobierz [Magnet] Pobierz [Magnet]

Obserwuj
Raportuj
Info

produkcja: USA
gatunek: Sci-Fi, Thriller, Dramat
reżyseria: Kenneth Fink, Juan Carlos Fresnadillo, Stuart Gillard
scenariusz: Elizabeth Kruger, Craig Shapiro, Christina M. Walker
zdjęcia: Mark Willis, Dave Sheridan
muzyka: John Paesano
czas trwania: ok. 40-43 min.

Opis

Bohaterami serialu są absolwent MIT Liamie oraz miliarder Darius Tanz, którzy informują niską rangą pracownicę Pentagonu, że pewna planetoida jest na kursie kolizyjnym z Ziemią. Do zderzenia ma dojść za pół roku.

Obsada

Ian Anthony Dale - Harris Edwards
Santiago Cabrera - Darius Tanz
Jennifer Finnigan - Grace Barrows
Dennis Boutsikaris - Dr. Malcom Croft
Charlie Rowe - Liam Cole
Aaron Poole - Lazlo Simms
Kyle Alcock - Tanz employee
Lovina Yavari - Naomi

Dane Techniczne

Format : Matroska
Format version : Version 4 / Version 2
File size : 724 MiB
Duration : 43 min 28 s
Overall bit rate : 2 327 kb/s
Encoded date : UTC 2019-01-10 07:11:40

Video
ID : 1
Format : AVC
Format/Info : Advanced Video Codec
Format profile : Main@L3.1
Format settings : CABAC / 3 Ref Frames
Format settings, CABAC : Yes
Format settings, ReFrames : 3 frames
Codec ID : V_MPEG4/ISO/AVC
Duration : 43 min 28 s
Bit rate : 1 941 kb/s
Width : 1 280 pixels
Height : 720 pixels
Display aspect ratio : 16:9
Frame rate mode : Constant
Frame rate : 23.976 (24000/1001) FPS
Color space : YUV
Chroma subsampling : 4:2:0
Bit depth : 8 bits
Scan type : Progressive
Bits/(Pixel*Frame) : 0.088
Stream size : 604 MiB (83%)
Default : Yes
Forced : Yes

Audio
ID : 2
Format : AC-3
Format/Info : Audio Coding 3
Codec ID : A_AC3
Duration : 43 min 28 s
Bit rate mode : Constant
Bit rate : 384 kb/s
Channel(s) : 6 channels
Channel positions : Front: L C R, Side: L R, LFE
Sampling rate : 48.0 kHz
Frame rate : 31.250 FPS (1536 SPF)
Bit depth : 16 bits
Compression mode : Lossy
Stream size : 119 MiB (17%)
Language : Polish
Service kind : Complete Main
Default : Yes
Forced : Yes

Text
ID : 3
Format : UTF-8
Codec ID : S_TEXT/UTF8
Codec ID/Info : UTF-8 Plain Text
Duration : 27 min 15 s
Bit rate : 0 b/s
Count of elements : 3
Stream size : 66.0 Bytes (0%)
Default : Yes
Forced : Yes
Dostępne napisy
Brak napisów
Szczegóły torrenta
Tracker http://tracker.city9x.com:2710/announce
Multitracker [ Pokaż ]
Kategoria: » » » » [Zgłoś błąd]
Dodane 10-01-2019
Podziękowali:
0 użytkowników 
Podziękuj!
Pokaż / Ukryj pliki:
Nazwa pliku Rozmiar
Salvation S02E01 - Fall Out [720p.NF.WEB-DL.H.264.DD5.1] [Lektor PL].mkv 723.51 MB
Salvation S02E02 - Détente [720p.NF.WEB-DL.H.264.DD5.1] [Lektor PL].mkv 632.42 MB
Salvation S02E03 - Crimes and Punishment [720p.NF.WEB-DL.H.264.DD5.1] [Lektor PL].mkv 591.71 MB
Salvation S02E04 - Indivisible [720p.NF.WEB-DL.H.264.DD5.1] [Lektor PL].mkv 599.27 MB
Salvation S02E05 - White House Down [720p.NF.WEB-DL.H.264.DD5.1] [Lektor PL].mkv 620.83 MB
Salvation S02E06 - Let the Chips Fall [720p.NF.WEB-DL.H.264.DD5.1] [Lektor PL].mkv 673.86 MB
Salvation S02E07 - The Madness of King Tanz [720p.NF.WEB-DL.H.264.DD5.1] [Lektor PL].mkv 552.65 MB
Salvation S02E08 - Abre Sus Ojos [720p.NF.WEB-DL.H.264.DD5.1] [Lektor PL].mkv 591.32 MB
Salvation S02E09 - The Manchurian Candidate [720p.NF.WEB-DL.H.264.DD5.1] [Lektor PL].mkv 611.58 MB
Salvation S02E10 - Prisoners [720p.NF.WEB-DL.H.264.DD5.1] [Lektor PL].mkv 674.23 MB
Salvation S02E11 - Celebration Day [720p.NF.WEB-DL.H.264.DD5.1] [Lektor PL].mkv 696.45 MB
Salvation S02E12 - Hail Marry [720p.NF.WEB-DL.H.264.DD5.1] [Lektor PL].mkv 751.64 MB
Salvation S02E13 - Get Ready [720p.NF.WEB-DL.H.264.DD5.1] [Lektor PL].mkv 666.85 MB
13 plików
Brak komentarzy...