Enable / Włącz Javascript
 Widok 
 Kategorie 
 Nitro Torrent w sieci 
 Top 10 użytkowników 
 Halloween *2018* [1080p.KORSUB.HDRip.x264.AAC2.0-STUTTERSHIT] [ENG]

Halloween *2018* [1080p.KORSUB.HDRip.x264.AAC2.0-STUTTERSHIT] [ENG]
Kategoria: » » »
Dodane: 05/12/2018
Rozmiar: 3.17 GB
Uploader: feldfebel1 (13)
seed(ów): 2250
leecher(ów): 282
Pobrane: 148
Komentarzy: 0
Pobierz Torrent Pobierz Torrent
Pobierz [Magnet] Pobierz [Magnet]

Obserwuj
Raportuj
Info

Produkcja: USA
Gatunek: Horror
Premiera: 26 października 2018 (Polska), 8 września 2018 (świat)
Reżyseria: David Gordon Green
Scenariusz: Jeff Fradley, David Gordon Green


Opis

Ostateczna konfrontacja Laurie Strode z Michaelem Myersem - zamaskowanym prześladowcą - przed którym uciekła 40 lat wcześniej.


Obsada

? Jamie Lee Curtis .... Laurie Strode
? Judy Greer .... Karen
? Andi Matichak .... Allyson
? James Jude Courtney .... Kształt
? Nick Castle .... Kształt
? Haluk Bilginer .... Dr Sartain
? Will Patton .... Oficer Hawkins
? Rhian Rees .... Dana Haines


Dane Techniczne

Video
ID : 1
Format : AVC
Format/Info : Advanced Video Codec
Format profile : High@L4.1
Format settings : CABAC / 4 Ref Frames
Format settings, CABAC : Yes
Format settings, ReFrames : 4 frames
Codec ID : V_MPEG4/ISO/AVC
Duration : 1 h 45 min
Bit rate : 4 075 kb/s
Width : 1 920 pixels
Height : 800 pixels
Display aspect ratio : 2.40:1
Frame rate mode : Constant
Frame rate : 30.000 FPS
Color space : YUV
Chroma subsampling : 4:2:0
Bit depth : 8 bits
Scan type : Progressive
Bits/(Pixel*Frame) : 0.088
Stream size : 2.98 GiB (94%)
Title : Halloween.2018.1080p.KORSUB.HDRip.x264.AAC2.0-STUTTERSHIT
Writing library : x264 core 142 r2479 dd79a61
Default : Yes
Forced : No
Color range : Limited
Color primaries : BT.709
Transfer characteristics : BT.709
Matrix coefficients : BT.709

Audio
ID : 2
Format : AAC LC
Format/Info : Advanced Audio Codec Low Complexity
Codec ID : A_AAC-2
Duration : 1 h 45 min
Bit rate : 256 kb/s
Channel(s) : 2 channels
Channel layout : L R
Sampling rate : 48.0 kHz
Frame rate : 46.875 FPS (1024 SPF)
Compression mode : Lossy
Stream size : 193 MiB (6%)
Title : Halloween.2018.1080p.KORSUB.HDRip.x264.AAC2.0-STUTTERSHIT
Language : English
Default : Yes
Forced : No


Screenshot / Wideo


Dostępne napisy
Brak napisów
Szczegóły torrenta
Tracker http://tracker.trackerfix.com:80/announce
Multitracker [ Pokaż ]
Kategoria: » » » [Zgłoś błąd]
Dodane 05-12-2018
Podziękowali:
0 użytkowników 
Podziękuj!
Pokaż / Ukryj pliki:
Nazwa pliku Rozmiar
Halloween.2018.1080p.KORSUB.HDRip.x264.AAC2.0-STUTTERSHIT.mkv 3.17 GB
RARBG.txt 0.03 KB
2 plików
Brak komentarzy...