Enable / Włącz Javascript
 Widok 
 Kategorie 
 Nitro Torrent w sieci 
 Top 10 użytkowników 
 Gentleman z rewolwerem - The Old Man and the Gun *2018* [1080p.WEBRip.x264.AAC2.0-SHITBOX] [ENG]

Gentleman z rewolwerem - The Old Man and the Gun *2018* [1080p.WEBRip.x264.AAC2.0-SHITBOX] [ENG]
Kategoria: » » »
Dodane: 31/12/2018
Rozmiar: 4.34 GB
Uploader: feldfebel1 (13)
seed(ów): 4235
leecher(ów): 1619
Pobrane: 162
Komentarzy: 0
Pobierz Torrent Pobierz Torrent
Pobierz [Magnet] Pobierz [Magnet]

Obserwuj
Raportuj
Info

Produkcja: USA
Gatunek: Komedia kryminalna
Premiera: 16 listopada 2018 (Polska), 31 sierpnia 2018 (świat)
Reżyseria: David Lowery
Scenariusz: David Lowery


Opis

To wydarzyło się mniej więcej naprawdę. Forrest Tucker wiódł bardzo uporządkowane życie. W równie bezczelny, co sympatyczny sposób rabował banki, a kiedy czasem powinęła mu się noga i trafiał za kratki, uciekał z więzienia tylko po to, by dokonywać kolejnych napadów. Dopiero gdy spotkał na swej drodze wyjątkową kobietę, znalazł powód, by się ustatkować i schować swój rewolwer gdzieś na dno szuflady. Jednak mając siedemdziesiątkę na karku trudno jest zrezygnować ze starych przyzwyczajeń. Kiedy nadarzy się okazja, by zrobić ostatni skok, Tucker będzie musiał odłożyć planowanie emerytury na później.


Obsada

? Robert Redford .... Forrest Tucker
? Sissy Spacek .... Jewel
? Casey Affleck .... John Hunt
? Danny Glover .... Teddy
? Tom Waits .... Waller
? Tika Sumpter .... Maureen
? Ari Elizabeth Johnson .... Abilene
? Teagan Johnson .... Tyler


Dane Techniczne

Video
ID : 1
Format : AVC
Format/Info : Advanced Video Codec
Format profile : High@L4.1
Format settings : CABAC / 4 Ref Frames
Format settings, CABAC : Yes
Format settings, ReFrames : 4 frames
Codec ID : avc1
Codec ID/Info : Advanced Video Coding
Duration : 1 h 32 min
Bit rate : 6 500 kb/s
Width : 1 920 pixels
Height : 800 pixels
Display aspect ratio : 2.40:1
Frame rate mode : Constant
Frame rate : 24.000 FPS
Color space : YUV
Chroma subsampling : 4:2:0
Bit depth : 8 bits
Scan type : Progressive
Bits/(Pixel*Frame) : 0.176
Stream size : 4.17 GiB (96%)
Title : The.Old.Man.and.the.Gun.2018.1080p.WEBRip.x264.AAC2.0-SHITBOX

Audio
ID : 2
Format : AAC LC
Format/Info : Advanced Audio Codec Low Complexity
Codec ID : mp4a-40-2
Duration : 1 h 32 min
Duration_LastFrame : -11 ms
Bit rate mode : Constant
Bit rate : 256 kb/s
Channel(s) : 2 channels
Channel layout : L R
Sampling rate : 48.0 kHz
Frame rate : 46.875 FPS (1024 SPF)
Compression mode : Lossy
Stream size : 170 MiB (4%)
Title : The Old.Man.and.the.Gun.2018.WEBRip.x264-SHITBOX
Language : English
Default : Yes
Alternate group : 1
Dostępne napisy
Brak napisów
Szczegóły torrenta
Tracker http://tracker.trackerfix.com:80/announce
Multitracker [ Pokaż ]
Kategoria: » » » [Zgłoś błąd]
Dodane 31-12-2018
Podziękowali:
0 użytkowników 
Podziękuj!
Pokaż / Ukryj pliki:
Nazwa pliku Rozmiar
RARBG.txt 0.03 KB
The.Old.Man.and.the.Gun.2018.1080p.WEBRip.x264.AAC2.0-SHITBOX.mp4 4.34 GB
2 plików
Brak komentarzy...